#TITLE:あんたがいたもり;
#SUBTITLE:- Fate Stay Night Anime Ending;
#ARTIST:ジュカイ;
#TITLETRANSLIT:Anata ga Ita Mori;
#SUBTITLETRANSLIT:;
#ARTISTTRANSLIT:Jyukai;
#CREDIT:Mellow;
#BANNER:Fate-Stay Night ED-bn.png;
#BACKGROUND:Fate-Stay Night ED-bg.jpg;
#LYRICSPATH:Fate-Stay Night ED.lrc;
#CDTITLE:CREDIT.png;
#MUSIC:Fate-Stay Night ED.mp3;
#OFFSET:0.920;
#SAMPLESTART:52.937;
#SAMPLELENGTH:12.000;
#SELECTABLE:YES;
#BPMS:0.000=75.500,108.000=59.500;
#STOPS:;
#BGCHANGES:2.000=Fate-Stay Night ED-video.avi=1.000=1=0=0,
112.000=Fate-Stay Night ED.jpg=1.000=1=0=0,
99999=-nosongbg-=1.000=0=0=0 // don't automatically add -songbackground-
;
// cache tags:
#FIRSTBEAT:3.667;
#LASTBEAT:112.000;
#SONGFILENAME:songs/Otaku's Dream 3rd Anime Mix/[errorrrr] Anata ga Ita Mori - Fate-Stay Night ED/Fate-Stay Night ED.sm;
#HASMUSIC:1;
#HASBANNER:1;
#MUSICLENGTH:92.081;
// end cache tags

//---------------dance-single - ----------------
#NOTES:
     dance-single:
     :
     Hard:
     6:
     0.469,0.487,0.152,0.956,0.554,200.000,14.000,88.000,0.000,0.000:
0000
0000
0000
0000
0000
0000
0000
0000
0000
0000
0000
0100
,
0002
0000
0013
2000
0000
3010
0002
0000
0103
2000
0000
3001
,
0020
0001
0001
0001
0001
0031
0200
0000
1300
0020
0000
1030
,
0020
0000
1030
0200
0000
0301
0020
0000
0031
0200
0000
0301
,
0020
1000
1000
1000
1000
1030
0200
0000
0301
0020
0000
0130
,
2000
0000
3100
0020
0000
0031
0200
0000
1300
0200
0000
0310
,
0002
0000
0103
2000
0000
3100
0022
0000
0000
0033
0100
1000
,
0002
0000
0000
0000
0003
0010
2000
0000
3000
0200
0300
0001
,
0020
0030
0100
2000
0100
0100
3100
0000
0000
0002
0000
0013
,
2000
0000
3000
0100
0001
0010
0200
0000
0300
1000
0100
0010
,
0002
0000
0103
2000
0000
3100
0020
0000
0130
2000
0000
3100
,
0022
0000
0000
0000
0000
0000
0000
0033
0000
2200
3300
0011
,
0022
0033
1100
2200
3300
0011
0022
0033
1000
0200
0000
0310
,
0002
0000
0003
0100
0010
1000
0200
0000
0310
0002
0000
0103
,
2000
0000
3000
0010
0001
0100
2000
0000
3001
0020
0000
1030
,
0202
0000
0303
2020
0000
3030
0202
0000
0000
0303
0000
1000
,
0200
0000
0310
2000
0000
3100
0002
0000
0013
0200
0000
1300
,
0020
0000
0000
0130
1000
0100
0020
0000
0130
2000
0000
3100
,
0002
0000
0000
0013
0100
1000
0020
0000
0000
0130
1000
0100
,
0010
0001
0020
0000
0130
0000
2200
0000
0000
0000
0000
0000
,
3300
0000
0010
0002
0000
0013
0200
0000
1300
0020
0000
0130
,
2000
0000
0000
3020
0000
0130
0002
0000
0000
0100
0000
0000
,
0000
0000
0003
0100
0010
0100
2000
0000
0000
0010
3000
0100
,
0010
0001
0100
0020
0000
0130
2000
0000
3100
0020
0000
0031
,
2000
0000
3010
0202
0000
0303
0010
1000
0100
0020
0000
0030
,
1000
0100
0010
0002
0000
0000
0013
0100
1000
0100
0010
0001
,
0010
0100
1000
0200
0000
0310
0001
0010
0100
2000
0000
3100
,
0010
0001
0010
0200
0000
0000
2000
0000
0000
0000
0000
0000
,
3300
0000
0000
0000
;

//---------------dance-single - Copied from----------------
#NOTES:
     dance-single:
     Copied from:
     Challenge:
     8:
     0.576,0.532,0.261,0.869,0.874,267.000,24.000,80.000,0.000,0.000:
0000
0000
0000
0000
0000
0000
0000
0000
0000
0000
0000
0100
,
0002
0000
0013
2000
0000
3010
0002
0000
0103
2000
0000
3001
,
0020
0001
0001
0001
0001
0031
0200
0000
1300
0020
0000
1030
,
0020
0000
1030
0200
0000
0301
0020
0000
0031
0200
0000
0301
,
0020
1000
1000
1000
1000
1030
0200
0000
0301
0020
0000
0130
,
2000
0000
3100
0020
0000
0031
0200
0000
1300
0200
0000
0310
,
0002
0000
0103
2000
0000
3100
0022
0000
0000
0033
0100
1000
,
0002
0000
0000
0100
0003
0010
2000
0000
3000
0200
0300
0001
,
0020
0030
0100
2000
0100
0100
3200
0000
0300
0002
0000
0013
,
2000
0100
0100
3100
0001
0010
0200
0001
0001
0301
0010
0100
,
2000
0000
3100
0002
0000
0103
0010
0001
0100
2000
0000
3100
,
0002
0010
0100
2003
0000
3010
0001
0010
0100
2000
3000
0011
,
0022
0033
1100
1100
1100
0011
0022
0033
1000
0200
0000
0310
,
0002
0000
0003
1100
0010
1000
0200
0010
0310
0002
0100
0103
,
2000
0010
3010
0010
0001
0100
2000
0001
3001
0020
0100
0130
,
0202
0303
0010
2020
3030
0100
0202
0303
0010
0100
1000
0100
,
0200
0010
0310
2000
0100
3100
0002
0010
0013
0200
1000
1300
,
0020
0100
0100
0130
1000
0100
0020
0100
0130
2000
0010
3010
,
0002
0100
0100
0103
0010
1000
0020
0100
0100
0130
1000
0100
,
0010
0001
0020
0100
0130
0100
2010
0010
3010
0210
0010
0310
,
2010
0010
3010
0002
0000
0013
0100
1000
0100
0010
0001
0100
,
2000
0000
0000
3020
0000
0130
0101
0010
0010
1010
0100
0100
,
1100
0100
0100
0101
0010
0010
2000
0100
0100
0100
3000
0100
,
0010
0001
0100
0020
1000
0130
2000
0000
3100
0010
0001
0010
,
2001
0000
3010
0202
0000
0303
0010
1000
0100
0020
1000
0130
,
1000
0100
0010
0101
0010
1000
0010
0100
1000
0100
0010
0001
,
0010
0100
1000
0101
0010
0100
0001
0010
0100
2000
0100
3100
,
0010
0001
0010
1200
1000
1000
2000
0000
0000
0000
0000
0000
,
3300
0000
0000
0000
;

//---------------dance-single - Copied from----------------
#NOTES:
     dance-single:
     Copied from:
     Medium:
     5:
     0.315,0.289,0.087,0.087,0.500,187.000,8.000,8.000,0.000,0.000:
0000
0000
0000
0000
0000
0000
0000
0000
0000
0000
0000
0100
,
0001
0000
0010
1000
0000
0010
0001
0000
0100
1000
0000
0001
,
0020
0000
0000
0000
0000
0030
0100
0000
1000
0010
0000
1000
,
0010
0000
1000
0100
0000
0001
0010
0000
0001
0100
0000
0001
,
0020
0000
0000
0000
0000
0030
0100
0000
0001
0010
0000
0100
,
1000
0000
0100
0010
0000
0001
0100
0000
1000
0100
0000
0010
,
0001
0000
0100
1000
0000
0100
0011
0000
0000
0000
0100
1000
,
0001
0000
0000
0000
0000
0010
1000
0000
0000
0100
0000
0001
,
0010
0000
0100
2000
0000
0000
3000
0000
0000
0001
0000
0010
,
1000
0000
0000
0100
0001
0010
0100
0000
0000
1000
0100
0010
,
0001
0000
0100
1000
0000
0100
0010
0000
0100
1000
0000
0100
,
0020
0000
0000
0000
0000
0000
0000
0030
0000
1100
0000
0101
,
0100
0000
1100
1000
0000
1001
0001
0000
1000
0100
0000
0010
,
0001
0000
0000
0100
0010
1000
0100
0000
0010
0001
0000
0100
,
1000
0000
0000
0010
0001
0100
1000
0000
0001
0010
0000
1000
,
0101
0000
0000
1010
0000
0000
0101
0000
0000
0000
0000
1000
,
0100
0000
0010
1000
0000
0100
0001
0000
0010
0100
0000
1000
,
0010
0000
0000
0100
1000
0100
0010
0000
0100
1000
0000
0100
,
0001
0000
0000
0010
0100
1000
0010
0000
0000
0100
1000
0100
,
0010
0001
0010
0000
0100
0000
2000
0000
0000
0000
0000
0000
,
0000
3000
0010
0001
0000
0010
0100
0000
1000
0010
0000
0100
,
1000
0000
0000
0010
0000
0100
0001
0000
0000
0200
0000
0000
,
0000
0300
0000
0100
0010
0100
1000
0000
0000
0010
0000
0100
,
0010
0001
0100
0010
0000
0100
1000
0000
0100
0010
0000
0001
,
1000
0000
0010
0100
0000
0000
0010
1000
0100
0010
0000
0000
,
1000
0100
0010
0001
0000
0000
0010
0100
1000
0100
0010
0001
,
0010
0100
1000
0100
0000
0010
0001
0010
0100
1000
0000
0100
,
0010
0001
0010
0200
0000
0000
2000
0000
0000
0000
0000
0000
,
3300
0000
0000
0000
;

//---------------dance-single - Copied from Copied f----------------
#NOTES:
     dance-single:
     Copied from Copied f:
     Easy:
     4:
     0.265,0.258,0.000,0.130,0.407,159.000,0.000,12.000,0.000,0.000:
0000
0000
0000
0000
0000
0000
0000
0000
0000
0000
0000
0100
,
0001
0000
0010
1000
0000
0010
0001
0000
0100
1000
0000
0001
,
0020
0000
0000
0000
0000
0000
0000
0000
0000
0030
0000
1000
,
0010
0000
1000
0100
0000
0001
0010
0000
0001
0100
0000
0001
,
0020
0000
0000
0000
0000
0000
0000
0000
0000
0030
0000
0100
,
1000
0000
0100
0010
0000
0001
0100
0000
1000
0100
0000
0010
,
0001
0000
0100
1000
0000
0100
0010
0000
0000
0000
0100
1000
,
0001
0000
0000
0000
0000
0010
1000
0000
0000
0100
0000
0001
,
0010
0000
0100
2000
0000
0000
3000
0000
0000
0001
0000
0010
,
1000
0000
0000
0100
0001
0010
0100
0000
0000
1000
0100
0010
,
0001
0000
0100
1000
0000
0100
0010
0000
0100
1000
0000
0100
,
0020
0000
0000
0000
0000
0000
0000
0030
0000
0100
0000
0100
,
0100
0000
1000
1000
0000
1000
0001
0000
0001
0001
0000
0010
,
0001
0000
0000
0100
0010
1000
0100
0000
0010
0001
0000
0100
,
1000
0000
0000
0010
0001
0100
1000
0000
0001
0010
0000
1000
,
0001
0000
0000
0010
0000
0000
0100
0000
0000
0000
0000
1000
,
0100
0000
0010
1000
0000
0100
0001
0000
0010
0100
0000
1000
,
0010
0000
0000
0100
1000
0100
0010
0000
0100
1000
0000
0100
,
0001
0000
0000
0010
0100
1000
0010
0000
0000
0100
1000
0100
,
0010
0001
0010
0000
0100
0000
2000
0000
0000
0000
0000
0000
,
0000
3000
0010
0001
0000
0010
0100
0000
1000
0010
0000
0100
,
1000
0000
0000
0010
0000
0100
0001
0000
0000
0200
0000
0000
,
0000
0300
0000
0100
0010
0100
2000
0000
0000
0000
0000
0000
,
3000
0000
0100
0010
0000
0100
1000
0000
0100
0010
0000
0001
,
1000
0000
0010
0200
0000
0000
0000
0000
0300
0002
0003
0100
,
2000
0000
0000
0000
0000
3000
0100
0000
,
0000
0100
0000
0100
,
0010
0001
0010
0200
0000
0000
2000
0000
0000
0000
0000
0000
,
3300
0000
0000
0000
;

//---------------dance-single - Copied from Copied f----------------
#NOTES:
     dance-single:
     Copied from Copied f:
     Beginner:
     2:
     0.130,0.134,0.000,0.000,0.000,84.000,0.000,0.000,0.000,0.000:
0000
0000
0000
0000
,
0001
1000
0001
1000
,
0010
0000
0000
0000
,
0010
0100
0010
0100
,
0010
0000
0000
0000
,
1000
0010
0100
0100
,
0001
1000
0010
0000
,
0001
0000
1000
0100
,
0010
1000
0000
0001
,
1000
0100
0100
1000
,
0001
1000
0010
1000
,
0010
0000
0000
0100
,
0100
1000
0001
0001
,
0001
0100
0100
0001
,
1000
0010
1000
0010
,
0001
0010
0100
0000
,
0100
1000
0001
0100
,
0010
0100
0010
1000
,
0001
0010
0010
0100
,
0010
0000
1000
0000
,
0000
0001
0100
0010
,
1000
0010
0001
0100
,
0000
0100
1000
0000
,
0000
0010
1000
0010
,
1000
0100
0000
0001
,
1000
0000
0000
0100
,
0000
0100
0000
0100
,
0010
0100
1000
0000
;
